<?xml version="1.0" standalone="no"?>
<!DOCTYPE svg PUBLIC "-//W3C//DTD SVG 1.1//EN" "http://www.w3.org/Graphics/SVG/1.1/DTD/svg11.dtd" >
<svg xmlns="http://www.w3.org/2000/svg" xmlns:xlink="http://www.w3.org/1999/xlink" version="1.1">
<metadata></metadata>
<defs>
<font id="sansa_pronormal" horiz-adv-x="1280" >
<font-face units-per-em="2048" ascent="1638" descent="-410" />
<missing-glyph horiz-adv-x="544" />
<glyph horiz-adv-x="0" />
<glyph horiz-adv-x="682" />
<glyph unicode=" "  horiz-adv-x="544" />
<glyph unicode="&#x09;" horiz-adv-x="544" />
<glyph unicode="&#xa0;" horiz-adv-x="544" />
<glyph unicode="!" horiz-adv-x="559" d="M193 0v193h176v-193h-176zM193 1536h176l-25 -1087h-129z" />
<glyph unicode="&#x22;" horiz-adv-x="911" d="M193 1536h176l-17 -416h-143zM545 1536h176l-16 -416h-146z" />
<glyph unicode="#" d="M63 352v160h256v512h-256v160h256v352h160v-352h322v352h160v-352h256v-160h-256v-512h256v-160h-256v-352h-160v352h-322v-352h-160v352h-256zM479 512h322v512h-322v-512z" />
<glyph unicode="$" d="M152 47v168h16q72 -21 188 -42t197 -21h63q320 0 320 264q0 118 -54 172.5t-169 83.5l-209 55q-336 95 -336 410q0 167 109 277t298 132v230h160v-224q85 -3 184.5 -22t145.5 -41v-162h-16q-61 21 -162.5 39t-173.5 18h-49q-149 0 -226.5 -59.5t-77.5 -187.5 q0 -58 16.5 -99t51.5 -68t68.5 -41.5t87.5 -31.5l200 -57q55 -15 97.5 -32t91 -50.5t80.5 -76.5t53.5 -111t21.5 -154q0 -182 -114 -295t-318 -133v-244h-159v240q-92 3 -214 24t-171 39z" />
<glyph unicode="%" horiz-adv-x="1918" d="M135 1096q0 228 83 338t261 110q176 0 260 -110.5t84 -337.5q0 -225 -84 -333t-260 -108q-179 0 -261.5 107.5t-82.5 333.5zM289 1096q0 -171 42.5 -245.5t147.5 -74.5t149 73t44 247q0 176 -44 251.5t-149 75.5q-106 0 -148 -75t-42 -252zM520 0v25l768 1511h113v-25 l-768 -1511h-113zM1087 432q0 227 83.5 338t261.5 111q174 0 259 -112t85 -337t-84.5 -332.5t-259.5 -107.5q-179 0 -262 106.5t-83 333.5zM1239 432q0 -170 43.5 -244.5t149.5 -74.5q105 0 148.5 72.5t43.5 246.5q0 176 -43.5 252t-148.5 76q-106 0 -149.5 -75.5 t-43.5 -252.5z" />
<glyph unicode="&#x26;" horiz-adv-x="1343" d="M143 432q0 127 59 228.5t175 148.5q-83 41 -133.5 132.5t-50.5 195.5q0 188 113.5 301.5t334.5 113.5h64q86 0 181.5 -17.5t153.5 -45.5v-162h-16q-61 21 -154 39t-165 18h-64q-127 0 -191.5 -57t-64.5 -190q0 -103 63.5 -171.5t159.5 -68.5h639v-170h-143v-672 q-72 -29 -207.5 -50t-255.5 -21q-498 0 -498 448zM336 432q0 -145 74 -212.5t231 -67.5q69 0 151.5 10t118.5 22v543h-303q-128 0 -200 -82.5t-72 -212.5z" />
<glyph unicode="'" horiz-adv-x="559" d="M193 1536h176l-17 -416h-143z" />
<glyph unicode="(" horiz-adv-x="720" d="M96 608v64q0 284 97 511t272 353h127v-33q-93 -81 -157.5 -179.5t-99 -207.5t-49 -215.5t-14.5 -228.5v-64q0 -122 14.5 -228.5t49 -215.5t99 -207.5t157.5 -179.5v-33h-127q-175 126 -272 353t-97 511z" />
<glyph unicode=")" horiz-adv-x="720" d="M127 -223q93 81 158 179.5t99.5 207t49.5 215.5t15 229v64q0 122 -15 229t-49.5 215.5t-99.5 207t-158 179.5v33h129q174 -127 271.5 -354t97.5 -510v-64q0 -283 -97.5 -510t-271.5 -354h-129v33z" />
<glyph unicode="*" horiz-adv-x="1024" d="M113 956l270 156l-270 156l63 112l273 -157v313h126v-313l273 157l63 -112l-272 -156l272 -156l-63 -112l-273 155v-311h-126v311l-273 -155z" />
<glyph unicode="+" d="M193 672v159h366v369h162v-369h366v-159h-366v-369h-162v369h-366z" />
<glyph unicode="," horiz-adv-x="559" d="M63 -256l121 449h193v-97l-193 -352h-121z" />
<glyph unicode="-" horiz-adv-x="831" d="M127 672v159h578v-159h-578z" />
<glyph unicode="." horiz-adv-x="559" d="M184 0v193h193v-193h-193z" />
<glyph unicode="/" horiz-adv-x="1024" d="M63 -223l746 1759h152v-33l-746 -1759h-152v33z" />
<glyph unicode="0" d="M127 768q0 398 124.5 591t387.5 193q262 0 387 -193t125 -591t-125 -591t-387 -193q-263 0 -387.5 193t-124.5 591zM317 768q0 -330 72 -473t250 -143q179 0 249 138t70 478t-70 478t-249 138q-180 0 -251 -138t-71 -478z" />
<glyph unicode="1" d="M193 1153v174l512 209h126v-1536h-190v1327l-432 -174h-16z" />
<glyph unicode="2" d="M176 0v201q0 65 14 127.5t46.5 129.5t94.5 129t148 109l176 97q52 28 86 49.5t66 50t50 59t29 70.5t11 90q0 76 -19.5 127.5t-59.5 79t-89.5 38.5t-120.5 11h-399v168h399q241 0 360 -104t119 -320q0 -108 -41.5 -192.5t-111 -143.5t-182.5 -121l-177 -96 q-65 -35 -107.5 -76.5t-63 -90.5t-28 -94t-7.5 -105v-25h735v-168h-928z" />
<glyph unicode="3" d="M193 0v168h399q156 0 246 75t90 222q0 143 -80.5 202.5t-239.5 59.5h-256v170h353q192 109 192 256q0 120 -72 163.5t-233 43.5h-399v176h415q479 0 479 -344q0 -111 -43.5 -189.5t-154.5 -154.5q122 -55 176.5 -142.5t54.5 -240.5q0 -222 -146 -343.5t-382 -121.5h-399z " />
<glyph unicode="4" d="M96 352v127q288 481 383 1057h193q-86 -501 -375 -1024h504v449h190v-449h193v-160h-193v-352h-190v352h-705z" />
<glyph unicode="5" d="M193 0v168h415q303 0 303 336q0 159 -72 224t-231 65h-385v743h817v-168h-641v-407h209q496 0 496 -457q0 -105 -28.5 -194t-86.5 -159.5t-155.5 -110.5t-225.5 -40h-415z" />
<glyph unicode="6" d="M160 479v482q0 97 23 182.5t71.5 158t119.5 124.5t171.5 81t222.5 29h223v-168h-223q-199 0 -307.5 -99t-108.5 -308v-89q192 89 320 89q236 0 342 -118t106 -364q0 -108 -26 -195.5t-81.5 -156t-149.5 -106t-222 -37.5q-239 0 -360 126.5t-121 368.5zM352 479 q0 -166 71.5 -246.5t217.5 -80.5q139 0 213 75t74 252q0 171 -60.5 242.5t-195.5 71.5q-168 0 -320 -78v-236z" />
<glyph unicode="7" d="M127 1376v160h1024v-127q-91 -108 -158.5 -198.5t-138 -209.5t-114.5 -233t-72.5 -255t-28.5 -290v-223h-193v193q0 633 496 1183h-815z" />
<glyph unicode="8" d="M143 416q0 64 13 113t42.5 89.5t58 67.5t79.5 66l72 57q-113 55 -172.5 137.5t-59.5 212.5q0 107 35.5 186t98 122.5t136.5 64t162 20.5h64q206 0 319 -91t113 -302q0 -55 -12 -99.5t-40 -84.5t-53 -66.5t-71 -68.5l-49 -43q129 -58 193.5 -144.5t64.5 -236.5 q0 -105 -36.5 -188t-100 -136t-147.5 -80.5t-181 -27.5h-64q-214 0 -339.5 107t-125.5 325zM336 416q0 -63 15 -109t40 -74t63.5 -44.5t78.5 -22.5t92 -6h30q65 0 113.5 11.5t90 38.5t63.5 79t22 127q0 95 -43.5 154.5t-132.5 93.5l-209 81l-63 -49q-2 -1 -21 -16t-23 -18.5 t-21 -18.5t-22 -21.5t-19 -23t-18.5 -27.5t-13.5 -30t-12.5 -37t-6.5 -40.5t-3 -47.5zM369 1159q0 -84 37.5 -136.5t121.5 -86.5l197 -78l43 39q39 37 59 57.5t43 53.5t32 69t9 82q0 130 -61 182t-178 52h-64q-117 0 -178 -52t-61 -182z" />
<glyph unicode="9" d="M160 1057q0 107 28 195.5t85 156.5t151 105.5t217 37.5q237 0 358 -127t121 -368v-482q0 -97 -23 -182.5t-71.5 -158t-119.5 -124.5t-171.5 -81t-222.5 -29h-223v168h223q199 0 307.5 99t108.5 308v89q-192 -89 -320 -89q-233 0 -340.5 123t-107.5 359zM352 1057 q0 -171 60.5 -242.5t195.5 -71.5q168 0 320 78v236q0 327 -287 327q-141 0 -215 -75t-74 -252z" />
<glyph unicode=":" horiz-adv-x="559" d="M184 0v193h193v-193h-193zM184 928v192h193v-192h-193z" />
<glyph unicode=";" horiz-adv-x="559" d="M63 -256l121 449h193v-97l-193 -352h-121zM184 928v192h193v-192h-193z" />
<glyph unicode="&#x3c;" d="M193 672v159l878 457h16v-168l-735 -368l735 -367v-170h-16z" />
<glyph unicode="=" d="M193 449v159h894v-159h-894zM193 897v160h894v-160h-894z" />
<glyph unicode="&#x3e;" d="M193 215v170l735 367l-735 368v168h16l878 -457v-159l-878 -457h-16z" />
<glyph unicode="?" horiz-adv-x="888" d="M127 1376v160h281q216 0 315.5 -85.5t99.5 -266.5q0 -159 -184 -375l-199 -242v-184h-176v192l215 256q168 200 168 353q0 192 -239 192h-281zM264 0v193h176v-193h-176z" />
<glyph unicode="@" horiz-adv-x="1904" d="M127 672q0 173 47 318.5t128.5 247.5t191.5 174t235.5 106t261.5 34q233 0 409.5 -86.5t276 -254.5t99.5 -396q0 -135 -59.5 -248t-170 -180.5t-250.5 -67.5h-352q-148 0 -242 94.5t-94 258.5q0 173 109 279t260 106h270v-608h49q56 0 108 22t96.5 64.5t71.5 115 t27 164.5q0 279 -155 428.5t-453 149.5q-152 0 -276 -43.5t-217 -130t-144 -226t-51 -321.5q0 -176 51 -314t142 -226t213 -133.5t268 -45.5q234 0 366 39h17v-152q-68 -23 -176.5 -36t-206.5 -13q-129 0 -249 31t-230.5 100t-192 169.5t-130 250t-48.5 330.5zM784 672 q0 -106 43.5 -164.5t116.5 -58.5h127v479h-94q-76 0 -134.5 -70.5t-58.5 -185.5z" />
<glyph unicode="A" horiz-adv-x="1376" d="M47 0v16q54 223 176 639q66 225 173.5 499.5t162.5 381.5h256q56 -103 163.5 -378t172.5 -503q114 -372 176 -639v-16h-190q-45 189 -97 377h-706q-28 -100 -94 -377h-193zM383 545h608q-5 15 -14.5 52t-15.5 58q-133 453 -273 721q-137 -263 -272 -721q-30 -97 -33 -110 z" />
<glyph unicode="B" horiz-adv-x="1327" d="M193 0v1536h528q432 0 432 -383q0 -130 -62.5 -227t-154.5 -142q118 -40 183 -122.5t65 -229.5q0 -215 -115 -323.5t-334 -108.5h-542zM385 168h350q131 0 193.5 65.5t62.5 198.5q0 256 -270 256h-336v-520zM385 856h336q113 0 176.5 84t63.5 197q0 123 -58.5 177 t-181.5 54h-336v-512z" />
<glyph unicode="C" horiz-adv-x="1312" d="M113 672v192q0 332 196.5 510t538.5 178q99 0 198.5 -22t153.5 -49v-344h-176v223q-94 24 -209 24q-111 0 -201.5 -29t-161.5 -89.5t-110 -162.5t-39 -239v-192q0 -251 125.5 -385.5t355.5 -134.5h97q141 0 303 63h16v-160q-47 -23 -140.5 -47t-178.5 -24h-97 q-170 0 -300 51t-210.5 144t-120.5 217t-40 276z" />
<glyph unicode="D" horiz-adv-x="1456" d="M193 0v1536h454q346 0 513 -159.5t167 -479.5v-225q0 -153 -36.5 -273.5t-112 -211t-201.5 -139t-297 -48.5h-487zM385 168h295q242 0 349.5 123.5t107.5 380.5v225q0 247 -121.5 359t-368.5 112h-262v-1200z" />
<glyph unicode="E" horiz-adv-x="1183" d="M193 416v1120h864v-168h-672v-471h606v-170h-606v-328q0 -117 54.5 -174t152.5 -57h465v-168h-449q-207 0 -311 101.5t-104 314.5z" />
<glyph unicode="F" horiz-adv-x="1120" d="M193 0v1120q0 204 105.5 310t309.5 106h416v-168h-416q-120 0 -171.5 -58t-51.5 -190v-223h606v-170h-606v-727h-192z" />
<glyph unicode="G" horiz-adv-x="1423" d="M127 672v209q0 164 55.5 292.5t154.5 211t233 125t294 42.5q112 0 230 -22.5t170 -48.5v-160h-17q-203 63 -383 63q-95 0 -174.5 -16t-149 -53.5t-118 -94.5t-76 -143t-27.5 -196v-209q0 -250 135.5 -385t376.5 -135h64q101 0 192 24v408h-319v168h496v-689 q-45 -25 -162.5 -52t-206.5 -27h-64q-170 0 -304.5 51t-221.5 143.5t-132.5 217.5t-45.5 276z" />
<glyph unicode="H" horiz-adv-x="1519" d="M193 0v1536h192v-639h752v639h190v-1536h-190v727h-752v-727h-192z" />
<glyph unicode="I" horiz-adv-x="575" d="M193 0v1536h190v-1536h-190z" />
<glyph unicode="J" horiz-adv-x="927" d="M96 0v168h193q120 0 188 74.5t68 206.5v919h-385v168h575v-1087q0 -204 -121.5 -326.5t-324.5 -122.5h-193z" />
<glyph unicode="K" horiz-adv-x="1312" d="M193 0v1536h192v-655h94l584 655h201v-16l-631 -711l647 -793v-16h-215l-594 721h-86v-721h-192z" />
<glyph unicode="L" horiz-adv-x="1056" d="M193 416v1120h192v-1137q0 -117 54.5 -174t152.5 -57h432v-168h-416q-204 0 -309.5 106t-105.5 310z" />
<glyph unicode="M" horiz-adv-x="1728" d="M193 0v1536h159l512 -727l512 727h160v-1536h-193v1192l-446 -617h-88l-424 601v-1176h-192z" />
<glyph unicode="N" horiz-adv-x="1536" d="M193 0v1536h126l834 -1137v1137h190v-1536h-126l-832 1137v-1137h-192z" />
<glyph unicode="O" horiz-adv-x="1503" d="M113 705v126q0 341 165 531t474 190q312 0 476.5 -186t164.5 -535v-126q0 -340 -166 -530.5t-475 -190.5q-311 0 -475 185.5t-164 535.5zM303 705q0 -285 112 -419t337 -134q226 0 337 134t111 419v126q0 285 -111 419t-337 134q-225 0 -337 -134t-112 -419v-126z" />
<glyph unicode="P" horiz-adv-x="1247" d="M193 0v1536h495q463 0 463 -496q0 -247 -125.5 -387.5t-370.5 -140.5h-272v-512h-190zM383 680h272q75 0 130 18t88.5 48t53.5 77.5t27 98.5t7 118q0 174 -63 251t-226 77h-289v-688z" />
<glyph unicode="Q" horiz-adv-x="1503" d="M113 705v126q0 341 165 531t474 190q312 0 476.5 -186t164.5 -535v-126q0 -316 -145.5 -504t-416.5 -213v-76q0 -68 32.5 -97.5t119.5 -29.5q139 0 217 31h17v-160q-126 -41 -256 -41q-141 0 -215 80.5t-74 216.5v76q-273 23 -416 207t-143 510zM303 705q0 -285 112 -419 t337 -134q226 0 337 134t111 419v126q0 285 -111 419t-337 134q-225 0 -337 -134t-112 -419v-126z" />
<glyph unicode="R" horiz-adv-x="1343" d="M193 0v1536h495q240 0 351.5 -112t111.5 -353q0 -176 -71.5 -278t-207.5 -160q85 -78 169 -206t134.5 -234t71.5 -177v-16h-198q-27 106 -143.5 298.5t-217.5 276.5h-305v-575h-190zM383 743h256q322 0 322 328q0 167 -65 232t-224 65h-289v-625z" />
<glyph unicode="S" horiz-adv-x="1200" d="M113 47v168h16q72 -21 187 -42t196 -21h63q322 0 322 264q0 61 -15 105t-46.5 72.5t-69 46t-94.5 32.5l-207 55q-336 94 -336 410q0 187 134.5 301t361.5 114h47q84 0 194 -20t158 -43v-162h-16q-61 21 -162 39t-174 18h-47q-306 0 -306 -247q0 -58 16.5 -99t51.5 -68 t69 -42t89 -31l198 -57q56 -16 97.5 -33t91 -50.5t81 -76t53 -110.5t21.5 -154q0 -199 -136 -315.5t-376 -116.5h-63q-88 0 -217 22t-182 41z" />
<glyph unicode="T" horiz-adv-x="1216" d="M33 1368v168h1151v-168h-479v-1368h-193v1368h-479z" />
<glyph unicode="U" horiz-adv-x="1472" d="M176 528v1008h193v-1008q0 -99 27.5 -173t78 -117.5t115.5 -64.5t145 -21q81 0 146.5 21t116 64.5t78.5 117.5t28 173v1008h192v-1008q0 -259 -152 -401.5t-409 -142.5q-264 0 -411.5 141.5t-147.5 402.5z" />
<glyph unicode="V" horiz-adv-x="1312" d="M47 1520v16h193q152 -829 424 -1376q270 544 423 1376h177v-16q-56 -318 -150.5 -643.5t-181.5 -542.5t-156 -334h-239q-113 188 -260 620t-230 900z" />
<glyph unicode="W" horiz-adv-x="2031" d="M47 1520v16h193q122 -847 352 -1376q222 480 352 1376h160q62 -429 146 -762t206 -614q106 226 198.5 590.5t153.5 785.5h177v-16q-66 -466 -188 -894.5t-220 -625.5h-234q-64 131 -152 407t-167 609q-80 -337 -167 -612.5t-152 -403.5h-248q-99 195 -221.5 623.5 t-188.5 896.5z" />
<glyph unicode="X" d="M41 0v16l483 754l-483 750v16h215l383 -590l377 590h192v-16l-471 -729l502 -775v-16h-215l-397 614l-396 -614h-190z" />
<glyph unicode="Y" horiz-adv-x="1232" d="M41 1520v16h199l393 -735l391 735h184v-16l-487 -887v-633h-193v616z" />
<glyph unicode="Z" horiz-adv-x="1247" d="M96 0v88q203 263 451.5 652t341.5 628h-762v168h1010v-63q-95 -244 -340 -651.5t-428 -653.5h782v-168h-1055z" />
<glyph unicode="[" horiz-adv-x="768" d="M193 -256v1792h446v-129h-270v-1536h270v-127h-446z" />
<glyph unicode="\" horiz-adv-x="1024" d="M63 1503v33h152l746 -1759v-33h-152z" />
<glyph unicode="]" horiz-adv-x="768" d="M127 -129h272v1536h-272v129h448v-1792h-448v127z" />
<glyph unicode="^" d="M104 223v17l455 880h162l455 -880v-17h-168l-367 738l-369 -738h-168z" />
<glyph unicode="_" d="M63 0h1154v-160h-1154v160z" />
<glyph unicode="`" horiz-adv-x="399" d="M0 1569v30h201l198 -286v-33h-110z" />
<glyph unicode="a" horiz-adv-x="1208" d="M121 369v176q0 128 49.5 237.5t132 182.5t189 114t221.5 41h303v-1120h-176v209l-80 -80q-71 -69 -146 -107t-174 -38q-68 0 -124.5 22.5t-100.5 67.5t-69 120.5t-25 174.5zM297 369q0 -226 174 -226q129 0 305 176l64 66v576h-127q-184 0 -300 -113t-116 -303v-176z" />
<glyph unicode="b" horiz-adv-x="1208" d="M193 0v1536h176v-625l80 80q70 70 145 108t174 38q68 0 124.5 -22.5t100.5 -67.5t69 -120.5t25 -174.5v-177q0 -128 -49.5 -237.5t-131.5 -182.5t-188.5 -114t-221.5 -41h-303zM369 160h127q183 0 299 113t116 302v177q0 225 -176 225q-127 0 -303 -176l-63 -66v-575z " />
<glyph unicode="c" horiz-adv-x="1024" d="M121 465v190q0 113 41 206.5t109 152.5t153 91t176 32q90 0 179 -24t141 -56v-289h-160v176q-68 33 -160 33q-62 0 -115 -18t-96 -55t-67.5 -101t-24.5 -148v-190q0 -156 79 -239t224 -83q157 0 289 72h14v-160q-144 -71 -303 -71q-223 0 -351 122.5t-128 358.5z" />
<glyph unicode="d" horiz-adv-x="1208" d="M121 369v176q0 128 49.5 237.5t132 182.5t189 114t221.5 41h127v416h176v-1536h-176v209l-80 -80q-71 -69 -146 -107t-174 -38q-68 0 -124.5 22.5t-100.5 67.5t-69 120.5t-25 174.5zM297 369q0 -226 174 -226q129 0 305 176l64 66v576h-127q-184 0 -300 -113t-116 -303 v-176z" />
<glyph unicode="e" horiz-adv-x="1087" d="M121 432v223q0 223 134.5 352.5t344.5 129.5q176 0 279.5 -80t103.5 -242q0 -150 -92 -234.5t-258 -84.5h-336v-64q0 -150 81.5 -219.5t221.5 -69.5q84 0 168 23.5t135 48.5h17v-160q-47 -23 -141 -47t-179 -24q-105 0 -190 25.5t-151 78t-102 140.5t-36 204zM297 641 h287q126 0 175.5 43t49.5 131q0 87 -54 124.5t-155 37.5q-303 0 -303 -322v-14z" />
<glyph unicode="f" horiz-adv-x="704" d="M63 961v159h177v47q0 178 98.5 273.5t269.5 95.5h127v-160h-127q-105 0 -148.5 -49t-43.5 -160v-47h289v-159h-289v-961h-176v961h-177z" />
<glyph unicode="g" horiz-adv-x="1208" d="M121 471v74q0 134 44.5 244t121.5 181.5t178 110.5t215 39h336v-977q0 -278 -154 -403t-454 -125h-193v162h193q231 0 331.5 80t100.5 272v47l-37 -20q-56 -29 -93 -45t-104 -32t-135 -16q-152 0 -251 104.5t-99 303.5zM297 471q0 -127 54 -187.5t153 -60.5q141 0 305 80 l31 16v642h-160q-179 0 -281 -111.5t-102 -304.5v-74z" />
<glyph unicode="h" horiz-adv-x="1255" d="M193 0v1536h176v-625l80 80q69 69 144.5 107.5t174.5 38.5q303 0 303 -385v-752h-174v752q0 225 -176 225q-40 0 -82 -17t-83.5 -49.5t-65 -53.5t-58.5 -56l-63 -66v-735h-176z" />
<glyph unicode="i" horiz-adv-x="591" d="M33 961v159h366v-1120h-176v961h-190zM223 1343v193h176v-193h-176z" />
<glyph unicode="j" horiz-adv-x="608" d="M-113 -223h80q151 0 212 77.5t61 241.5v865h-193v159h369v-991q0 -266 -114.5 -390t-364.5 -124h-50v162zM240 1343v193h176v-193h-176z" />
<glyph unicode="k" horiz-adv-x="1103" d="M193 0v1536h176v-848h110l369 432h201v-16l-424 -488l440 -600v-16h-201l-385 528h-110v-528h-176z" />
<glyph unicode="l" horiz-adv-x="559" d="M0 1376v160h369v-1536h-176v1376h-193z" />
<glyph unicode="m" horiz-adv-x="1959" d="M193 0v1120h176v-209l80 80q69 69 144.5 107.5t174.5 38.5q230 0 287 -226h16l82 80q73 69 147 107.5t173 38.5q303 0 303 -385v-752h-177v752q0 225 -176 225q-32 0 -67.5 -13.5t-62 -29.5t-61.5 -45t-51 -44.5t-44 -43.5l-66 -66v-735h-174v752q0 225 -176 225 q-40 0 -82 -17t-83.5 -49.5t-65 -53.5t-58.5 -56l-63 -66v-735h-176z" />
<glyph unicode="n" horiz-adv-x="1255" d="M193 0v1120h176v-209l80 80q69 69 144.5 107.5t174.5 38.5q303 0 303 -385v-752h-176v752q0 225 -174 225q-40 0 -82 -17t-83.5 -49.5t-65 -53.5t-58.5 -56l-63 -66v-735h-176z" />
<glyph unicode="o" horiz-adv-x="1200" d="M113 575q0 260 124 411t363 151q168 0 278.5 -71.5t159.5 -194.5t49 -296q0 -281 -123 -436t-364 -155q-487 0 -487 591zM289 575q0 -98 15.5 -173t50 -135t96.5 -92t149 -32t149 32t96.5 92t50 135t15.5 173q0 199 -70 300.5t-241 101.5t-241 -101.5t-70 -300.5z" />
<glyph unicode="p" horiz-adv-x="1208" d="M193 -385v1505h176v-209l80 80q70 70 145 108t174 38q68 0 124.5 -22.5t100.5 -67.5t69 -120.5t25 -174.5v-177q0 -128 -49.5 -237.5t-131.5 -182.5t-188.5 -114t-221.5 -41h-127v-385h-176zM369 160h127q183 0 299 113t116 302v177q0 225 -176 225q-127 0 -303 -176 l-63 -66v-575z" />
<glyph unicode="q" horiz-adv-x="1208" d="M121 369v176q0 128 49.5 237.5t132 182.5t189 114t221.5 41h303v-1505h-176v594l-80 -80q-71 -69 -146 -107t-174 -38q-68 0 -124.5 22.5t-100.5 67.5t-69 120.5t-25 174.5zM297 369q0 -226 174 -226q129 0 305 176l64 66v576h-127q-184 0 -300 -113t-116 -303v-176z" />
<glyph unicode="r" horiz-adv-x="815" d="M193 0v1120h176v-248l16 25q69 107 147.5 165t180.5 58h71v-192h-79q-59 0 -114.5 -21.5t-94.5 -58.5l-127 -127v-721h-176z" />
<glyph unicode="s" horiz-adv-x="1056" d="M143 815q0 150 116.5 236t315.5 86q132 0 297 -33v-160h-16q-173 33 -281 33q-256 0 -256 -162q0 -28 8.5 -49t18.5 -33t33 -22t38 -14.5t48 -12.5l151 -37q57 -13 100 -29t84.5 -42t68 -59.5t43 -84t16.5 -113.5q0 -72 -24.5 -129.5t-66 -95.5t-100 -63t-122.5 -36 t-136 -11q-196 0 -327 41v159h16q157 -41 311 -41q136 0 204.5 41.5t68.5 134.5q0 122 -177 160l-167 41q-265 61 -265 295z" />
<glyph unicode="t" horiz-adv-x="831" d="M63 961v159h177v256h176v-256h319v-159h-319v-545q0 -152 51.5 -204t187.5 -52h113v-160h-143q-385 0 -385 385v576h-177z" />
<glyph unicode="u" horiz-adv-x="1255" d="M184 369v751h176v-751q0 -226 177 -226q32 0 67.5 13.5t62 29.5t61.5 45t51 44.5t44 43.5l66 66v735h176v-1120h-176v209l-80 -80q-70 -70 -145.5 -107.5t-176.5 -37.5q-303 0 -303 385z" />
<glyph unicode="v" horiz-adv-x="1071" d="M113 831v289h176v-289q0 -223 73.5 -413t174.5 -289q100 100 173.5 289.5t73.5 412.5v289h177v-289q0 -135 -36.5 -276t-90.5 -249t-109 -187.5t-100 -118.5h-193q-45 38 -98 118t-103.5 188t-84 248.5t-33.5 276.5z" />
<glyph unicode="w" horiz-adv-x="1552" d="M113 831v289h176v-289q0 -223 59 -413t139 -289q81 100 141 290t60 412v289h176v-289q0 -222 60 -412t141 -290q80 101 139.5 290.5t59.5 411.5v289h176v-289q0 -180 -46 -358t-106 -295t-121 -178h-190q-49 54 -116.5 177.5t-84.5 207.5q-17 -84 -84.5 -207.5 t-116.5 -177.5h-190q-99 99 -185.5 333.5t-86.5 497.5z" />
<glyph unicode="x" horiz-adv-x="1024" d="M47 0v16l371 543l-355 545v16h193l266 -407l279 407h176v-16l-363 -533l363 -555v-16h-193l-274 420l-287 -420h-176z" />
<glyph unicode="y" horiz-adv-x="1255" d="M184 528v592h176v-592q0 -127 53.5 -183t153.5 -56q162 0 322 80v751h176v-944q0 -283 -157 -422t-451 -139h-193v162h193q225 0 328.5 94.5t103.5 288.5v63l-17 -8q-177 -86 -352 -86q-69 0 -127.5 22.5t-106 68t-75 124.5t-27.5 184z" />
<glyph unicode="z" horiz-adv-x="1071" d="M113 0v143q153 156 340.5 396t289.5 422h-600v159h801v-143q-38 -99 -155 -269.5t-244.5 -322.5t-208.5 -225h625v-160h-848z" />
<glyph unicode="{" horiz-adv-x="960" d="M127 584v112q167 12 244.5 68t77.5 164v256q0 187 77 269.5t275 82.5h94v-129h-94q-107 0 -141.5 -42.5t-34.5 -164.5v-256q0 -73 -20.5 -127.5t-59 -89t-83 -55t-102.5 -33.5q59 -14 103 -34t82.5 -54t59 -88t20.5 -127v-256q0 -123 34.5 -166t141.5 -43h94v-127h-94 q-198 0 -275 82.5t-77 269.5v256q0 108 -77.5 164t-244.5 68z" />
<glyph unicode="|" horiz-adv-x="559" d="M201 -385v2050h159v-2050h-159z" />
<glyph unicode="}" horiz-adv-x="960" d="M63 -129h97q106 0 141 43.5t35 165.5v256q0 73 20.5 127.5t59 89t82.5 55t102 33.5q-58 13 -102.5 33t-82.5 54t-58.5 88.5t-20.5 127.5v256q0 122 -35 165.5t-141 43.5h-97v127h97q198 0 275 -82.5t77 -269.5v-256q0 -108 76.5 -164t242.5 -68v-112q-166 -12 -242.5 -68 t-76.5 -164v-256q0 -187 -77 -269.5t-275 -82.5h-97v127z" />
<glyph unicode="~" d="M193 537v151q32 59 96 101t143 42q48 0 110.5 -21t113 -46.5t107 -46.5t93.5 -21q81 0 129.5 32.5t85.5 102.5h16v-151q-32 -59 -96 -101t-143 -42q-48 0 -110.5 21t-113 46.5t-107 46.5t-93.5 21q-70 0 -121 -33.5t-94 -101.5h-16z" />
<glyph unicode="&#xa2;" d="M113 672v192q0 297 161 472t447 208v232h160v-224q87 -4 177.5 -22.5t141.5 -40.5v-162h-16q-81 28 -188 42.5t-181 14.5q-111 0 -201.5 -29t-161.5 -89.5t-110 -162.5t-39 -239v-192q0 -251 125.5 -385.5t355.5 -134.5h97q141 0 303 63h16v-160q-156 -66 -303 -71v-240 h-162v242q-158 7 -278 60.5t-194.5 145.5t-112 212.5t-37.5 267.5z" />
<glyph unicode="&#xa3;" d="M127 0v168h96q160 109 160 377v182h-190v168h190v145q0 226 141 361t371 135h225v-168h-225q-157 0 -238.5 -83.5t-81.5 -244.5v-145h449v-168h-449v-182q0 -278 -159 -377h704v-168h-993z" />
<glyph unicode="&#xa5;" d="M55 1520v16h201l399 -672l385 672h185v-16l-490 -815v-152h418v-168h-418v-385h-190v385h-416v168h416v152z" />
<glyph unicode="&#xa8;" horiz-adv-x="671" d="M0 1280v193h176v-193h-176zM496 1280v193h176v-193h-176z" />
<glyph unicode="&#xa9;" horiz-adv-x="1759" d="M96 784q0 220 102.5 392.5t281 266t401.5 93.5q222 0 399.5 -93.5t280 -266t102.5 -392.5t-102.5 -392.5t-280 -265.5t-399.5 -93q-223 0 -401.5 93t-281 265.5t-102.5 392.5zM223 784q0 -137 47 -255.5t131.5 -203.5t208 -133.5t271.5 -48.5q147 0 270 48.5t207.5 133.5 t131 203.5t46.5 255.5t-46.5 255t-131 203t-207.5 133t-270 48q-148 0 -271.5 -48t-208 -133t-131.5 -203t-47 -255zM479 784q0 109 40 192t109 130.5t152.5 70.5t180.5 23q72 0 190 -33v-96q-118 33 -190 33q-141 0 -231.5 -80.5t-90.5 -239.5q0 -160 90 -239.5t232 -79.5 q95 0 190 31v-97q-92 -30 -190 -30q-77 0 -145.5 13.5t-131 45t-107.5 78.5t-71.5 118t-26.5 160z" />
<glyph unicode="&#xab;" horiz-adv-x="1200" d="M127 625v127l432 368h16v-192l-286 -240l286 -239v-193h-16zM639 625v127l432 368h16v-192l-286 -240l286 -239v-193h-16z" />
<glyph unicode="&#xad;" horiz-adv-x="831" d="M127 672v159h578v-159h-578z" />
<glyph unicode="&#xae;" horiz-adv-x="1759" d="M96 784q0 220 102.5 392.5t281 266t401.5 93.5q222 0 399.5 -93.5t280 -266t102.5 -392.5t-102.5 -392.5t-280 -265.5t-399.5 -93q-223 0 -401.5 93t-281 265.5t-102.5 392.5zM223 784q0 -137 47 -255.5t131.5 -203.5t208 -133.5t271.5 -48.5q147 0 270 48.5t207.5 133.5 t131 203.5t46.5 255.5t-46.5 255t-131 203t-207.5 133t-270 48q-148 0 -271.5 -48t-208 -133t-131.5 -203t-47 -255zM575 369v831h273q336 0 336 -256q0 -85 -44.5 -146.5t-123.5 -84.5l192 -330v-14h-168l-159 286h-146v-286h-160zM735 752h113q76 0 126 49.5t50 142.5 q0 80 -49.5 120t-126.5 40h-113v-352z" />
<glyph unicode="&#xb4;" horiz-adv-x="399" d="M0 1280v33l201 286h198v-30l-286 -289h-113z" />
<glyph unicode="&#xb8;" horiz-adv-x="440" d="M0 -272h193q110 0 110 71q0 34 -31.5 71t-70.5 58v25h110q54 -25 91.5 -73t37.5 -95q0 -86 -63.5 -128t-161.5 -42h-215v113z" />
<glyph unicode="&#xbb;" horiz-adv-x="1200" d="M113 256v193l286 239l-286 240v192h14l432 -368v-127l-432 -369h-14zM625 256v193l286 239l-286 240v192h14l432 -368v-127l-432 -369h-14z" />
<glyph unicode="&#xc2;" horiz-adv-x="1376" d="M47 0v16q54 223 176 639q66 225 173.5 499.5t162.5 381.5h256q56 -103 163.5 -378t172.5 -503q114 -372 176 -639v-16h-190q-45 189 -97 377h-706q-28 -100 -94 -377h-193zM336 1696v33l256 286h192l256 -291v-28h-129l-223 231l-223 -231h-129zM383 545h608 q-5 15 -14.5 52t-15.5 58q-133 453 -273 721q-137 -263 -272 -721q-30 -97 -33 -110z" />
<glyph unicode="&#xc7;" horiz-adv-x="1312" d="M113 672v192q0 332 196.5 510t538.5 178q99 0 198.5 -22t153.5 -49v-344h-176v223q-94 24 -209 24q-111 0 -201.5 -29t-161.5 -89.5t-110 -162.5t-39 -239v-192q0 -251 125.5 -385.5t355.5 -134.5h97q141 0 303 63h16v-160q-47 -23 -140.5 -47t-178.5 -24h-97 q-170 0 -300 51t-210.5 144t-120.5 217t-40 276zM532 -272h193q111 0 111 71q0 35 -32.5 71.5t-72.5 57.5v25h113q54 -25 91.5 -73t37.5 -95q0 -86 -63.5 -128t-161.5 -42h-216v113z" />
<glyph unicode="&#xce;" horiz-adv-x="575" d="M-63 1696v33l256 286h190l256 -291v-28h-127l-223 231l-226 -231h-126zM193 0v1536h190v-1536h-190z" />
<glyph unicode="&#xd6;" horiz-adv-x="1503" d="M113 705v126q0 341 165 531t474 190q312 0 476.5 -186t164.5 -535v-126q0 -340 -166 -530.5t-475 -190.5q-311 0 -475 185.5t-164 535.5zM303 705q0 -285 112 -419t337 -134q226 0 337 134t111 419v126q0 285 -111 419t-337 134q-225 0 -337 -134t-112 -419v-126z M416 1696v192h176v-192h-176zM911 1696v192h176v-192h-176z" />
<glyph unicode="&#xdb;" horiz-adv-x="1472" d="M176 528v1008h193v-1008q0 -99 27.5 -173t78 -117.5t115.5 -64.5t145 -21q81 0 146.5 21t116 64.5t78.5 117.5t28 173v1008h192v-1008q0 -259 -152 -401.5t-409 -142.5q-264 0 -411.5 141.5t-147.5 402.5zM383 1696v33l256 286h192l256 -291v-28h-126l-226 231l-223 -231 h-129z" />
<glyph unicode="&#xdc;" horiz-adv-x="1472" d="M176 528v1008h193v-1008q0 -99 27.5 -173t78 -117.5t115.5 -64.5t145 -21q81 0 146.5 21t116 64.5t78.5 117.5t28 173v1008h192v-1008q0 -259 -152 -401.5t-409 -142.5q-264 0 -411.5 141.5t-147.5 402.5zM399 1696v192h176v-192h-176zM895 1696v192h176v-192h-176z" />
<glyph unicode="&#xe2;" horiz-adv-x="1208" d="M121 369v176q0 128 49.5 237.5t132 182.5t189 114t221.5 41h303v-1120h-176v209l-80 -80q-71 -69 -146 -107t-174 -38q-68 0 -124.5 22.5t-100.5 67.5t-69 120.5t-25 174.5zM268 1280v33l256 286h193l256 -290v-29h-129l-223 231l-226 -231h-127zM297 369 q0 -226 174 -226q129 0 305 176l64 66v576h-127q-184 0 -300 -113t-116 -303v-176z" />
<glyph unicode="&#xe7;" horiz-adv-x="1024" d="M121 465v190q0 113 41 206.5t109 152.5t153 91t176 32q90 0 179 -24t141 -56v-289h-160v176q-68 33 -160 33q-62 0 -115 -18t-96 -55t-67.5 -101t-24.5 -148v-190q0 -156 79 -239t224 -83q157 0 289 72h14v-160q-144 -71 -303 -71q-223 0 -351 122.5t-128 358.5z M332 -272h192q113 0 113 71q0 34 -32.5 71t-72.5 58v25h111q55 -25 92 -73t37 -95q0 -86 -63 -128t-160 -42h-217v113z" />
<glyph unicode="&#xee;" horiz-adv-x="591" d="M-96 1280v33l256 286h192l256 -290v-29h-129l-223 231l-223 -231h-129zM33 961v159h366v-1120h-176v961h-190z" />
<glyph unicode="&#xf6;" horiz-adv-x="1200" d="M113 575q0 260 124 411t363 151q168 0 278.5 -71.5t159.5 -194.5t49 -296q0 -281 -123 -436t-364 -155q-487 0 -487 591zM264 1280v193h176v-193h-176zM289 575q0 -98 15.5 -173t50 -135t96.5 -92t149 -32t149 32t96.5 92t50 135t15.5 173q0 199 -70 300.5t-241 101.5 t-241 -101.5t-70 -300.5zM760 1280v193h176v-193h-176z" />
<glyph unicode="&#xfb;" horiz-adv-x="1255" d="M184 369v751h176v-751q0 -226 177 -226q32 0 67.5 13.5t62 29.5t61.5 45t51 44.5t44 43.5l66 66v735h176v-1120h-176v209l-80 -80q-70 -70 -145.5 -107.5t-176.5 -37.5q-303 0 -303 385zM276 1280v33l256 286h193l256 -290v-29h-129l-223 231l-226 -231h-127z" />
<glyph unicode="&#xfc;" horiz-adv-x="1255" d="M184 369v751h176v-751q0 -226 177 -226q32 0 67.5 13.5t62 29.5t61.5 45t51 44.5t44 43.5l66 66v735h176v-1120h-176v209l-80 -80q-70 -70 -145.5 -107.5t-176.5 -37.5q-303 0 -303 385zM293 1280v193h176v-193h-176zM788 1280v193h177v-193h-177z" />
<glyph unicode="&#x11e;" horiz-adv-x="1423" d="M127 672v209q0 164 55.5 292.5t154.5 211t233 125t294 42.5q112 0 230 -22.5t170 -48.5v-160h-17q-203 63 -383 63q-95 0 -174.5 -16t-149 -53.5t-118 -94.5t-76 -143t-27.5 -196v-209q0 -250 135.5 -385t376.5 -135h64q101 0 192 24v408h-319v168h496v-689 q-45 -25 -162.5 -52t-206.5 -27h-64q-170 0 -304.5 51t-221.5 143.5t-132.5 217.5t-45.5 276zM471 1985h96q0 -74 67.5 -116t158.5 -42q90 0 156.5 42t66.5 116h96q0 -59 -19 -109.5t-56.5 -91.5t-100 -64.5t-143.5 -23.5q-159 0 -240.5 82.5t-81.5 206.5z" />
<glyph unicode="&#x11f;" horiz-adv-x="1208" d="M121 471v74q0 134 44.5 244t121.5 181.5t178 110.5t215 39h336v-977q0 -278 -154 -403t-454 -125h-193v162h193q231 0 331.5 80t100.5 272v47l-37 -20q-56 -29 -93 -45t-104 -32t-135 -16q-152 0 -251 104.5t-99 303.5zM297 471q0 -127 54 -187.5t153 -60.5q141 0 305 80 l31 16v642h-160q-179 0 -281 -111.5t-102 -304.5v-74zM299 1569h96q0 -74 67.5 -117t158.5 -43q90 0 156.5 43t66.5 117h96q0 -125 -80.5 -207t-238.5 -82q-82 0 -145 23t-101 64t-57 92t-19 110z" />
<glyph unicode="&#x130;" horiz-adv-x="575" d="M193 0v1536h190v-1536h-190zM201 1696v192h176v-192h-176z" />
<glyph unicode="&#x131;" horiz-adv-x="591" d="M33 961v159h366v-1120h-176v961h-190z" />
<glyph unicode="&#x15e;" horiz-adv-x="1200" d="M113 47v168h16q72 -21 187 -42t196 -21h63q322 0 322 264q0 61 -15 105t-46.5 72.5t-69 46t-94.5 32.5l-207 55q-336 94 -336 410q0 187 134.5 301t361.5 114h47q84 0 194 -20t158 -43v-162h-16q-61 21 -162 39t-174 18h-47q-306 0 -306 -247q0 -58 16.5 -99t51.5 -68 t69 -42t89 -31l198 -57q56 -16 97.5 -33t91 -50.5t81 -76t53 -110.5t21.5 -154q0 -199 -136 -315.5t-376 -116.5h-63q-88 0 -217 22t-182 41zM285 -272h190q113 0 113 71q0 35 -32.5 71.5t-72.5 57.5v25h113q54 -25 91.5 -73t37.5 -95q0 -86 -63.5 -128t-161.5 -42h-215v113 z" />
<glyph unicode="&#x15f;" horiz-adv-x="1056" d="M143 815q0 150 116.5 236t315.5 86q132 0 297 -33v-160h-16q-173 33 -281 33q-256 0 -256 -162q0 -28 8.5 -49t18.5 -33t33 -22t38 -14.5t48 -12.5l151 -37q57 -13 100 -29t84.5 -42t68 -59.5t43 -84t16.5 -113.5q0 -72 -24.5 -129.5t-66 -95.5t-100 -63t-122.5 -36 t-136 -11q-196 0 -327 41v159h16q157 -41 311 -41q136 0 204.5 41.5t68.5 134.5q0 122 -177 160l-167 41q-265 61 -265 295zM219 -272h193q112 0 112 71q0 35 -32 72t-72 57v25h112q54 -25 90.5 -73t36.5 -95q0 -86 -63 -128t-160 -42h-217v113z" />
<glyph unicode="&#x2c6;" horiz-adv-x="704" d="M0 1280v33l256 286h193l256 -290v-29h-130l-223 231l-225 -231h-127z" />
<glyph unicode="&#x2da;" horiz-adv-x="464" d="M0 1489q0 89 58.5 148t172.5 59t174 -59t60 -148q0 -90 -60 -149.5t-174 -59.5t-172.5 59t-58.5 150zM96 1489q0 -54 34 -91.5t101 -37.5q68 0 103 37.5t35 91.5q0 52 -35.5 89.5t-102.5 37.5t-101 -37t-34 -90z" />
<glyph unicode="&#x2dc;" horiz-adv-x="704" d="M0 1280v129q96 160 201 160q37 0 83.5 -25t82.5 -55t74.5 -55t62.5 -25q23 0 46 11t38.5 23t37 39t31.5 41t31 46h17v-129q-96 -160 -201 -160q-44 0 -104.5 40t-115 80t-83.5 40q-28 0 -54.5 -13.5t-51.5 -41.5t-40 -48t-39 -57h-16z" />
<glyph unicode="&#x2000;" horiz-adv-x="1007" />
<glyph unicode="&#x2001;" horiz-adv-x="2015" />
<glyph unicode="&#x2002;" horiz-adv-x="1007" />
<glyph unicode="&#x2003;" horiz-adv-x="2015" />
<glyph unicode="&#x2004;" horiz-adv-x="671" />
<glyph unicode="&#x2005;" horiz-adv-x="503" />
<glyph unicode="&#x2006;" horiz-adv-x="335" />
<glyph unicode="&#x2007;" horiz-adv-x="335" />
<glyph unicode="&#x2008;" horiz-adv-x="251" />
<glyph unicode="&#x2009;" horiz-adv-x="403" />
<glyph unicode="&#x200a;" horiz-adv-x="111" />
<glyph unicode="&#x2010;" horiz-adv-x="831" d="M127 672v159h578v-159h-578z" />
<glyph unicode="&#x2011;" horiz-adv-x="831" d="M127 672v159h578v-159h-578z" />
<glyph unicode="&#x2012;" horiz-adv-x="831" d="M127 672v159h578v-159h-578z" />
<glyph unicode="&#x2013;" horiz-adv-x="1024" d="M63 672v159h898v-159h-898z" />
<glyph unicode="&#x2014;" horiz-adv-x="2048" d="M63 672v159h1922v-159h-1922z" />
<glyph unicode="&#x2018;" horiz-adv-x="559" d="M184 1087v97l193 352h119l-119 -449h-193z" />
<glyph unicode="&#x2019;" horiz-adv-x="559" d="M63 1087l121 449h193v-96l-193 -353h-121z" />
<glyph unicode="&#x201a;" horiz-adv-x="559" d="M63 -256l121 449h193v-97l-193 -352h-121z" />
<glyph unicode="&#x201c;" horiz-adv-x="944" d="M184 1087v97l193 352h119l-119 -449h-193zM567 1087v97l193 352h121l-121 -449h-193z" />
<glyph unicode="&#x201d;" horiz-adv-x="944" d="M63 1087l121 449h193v-96l-193 -353h-121zM449 1087l118 449h193v-96l-193 -353h-118z" />
<glyph unicode="&#x201e;" horiz-adv-x="944" d="M63 -256l121 449h193v-97l-193 -352h-121zM449 -256l118 449h193v-97l-193 -352h-118z" />
<glyph unicode="&#x2026;" horiz-adv-x="1703" d="M184 0v193h193v-193h-193zM752 0v193h192v-193h-192zM1327 0v193h193v-193h-193z" />
<glyph unicode="&#x202f;" horiz-adv-x="403" />
<glyph unicode="&#x2039;" horiz-adv-x="688" d="M127 625v127l432 368h16v-192l-286 -240l286 -239v-193h-16z" />
<glyph unicode="&#x203a;" horiz-adv-x="688" d="M113 256v193l286 239l-286 240v192h14l432 -368v-127l-432 -369h-14z" />
<glyph unicode="&#x205f;" horiz-adv-x="503" />
<glyph unicode="&#x20ac;" d="M63 520v168h193v160h-193v168h193v8q0 159 76.5 281t199.5 184.5t269 62.5h47q81 0 169.5 -19t133.5 -44v-162h-14q-55 25 -134.5 41t-154.5 16h-47q-69 0 -130 -21t-111.5 -62.5t-80.5 -113t-30 -163.5v-8h600v-168h-600v-160h600v-168h-600v-8q0 -87 30 -157t80 -113.5 t112.5 -66.5t129.5 -23h63q134 0 273 63h14v-160q-151 -71 -287 -71h-63q-111 0 -207.5 31.5t-173 93.5t-120.5 165.5t-44 237.5v8h-193z" />
<glyph unicode="&#x2122;" horiz-adv-x="1552" d="M47 1415v121h545v-121h-201v-694h-143v694h-201zM688 721v815h113l250 -360l229 360h113v-815h-146v512l-176 -256h-63l-177 240v-496h-143z" />
<glyph unicode="&#x25fc;" horiz-adv-x="1116" d="M0 0v1116h1116v-1116h-1116z" />
</font>
</defs>
</svg>
